BitTorrent трекер ex

BitTorrent трекер ex

BitTorrent трекер ex7tor.org BitTorrent трекер ex. Sun-Torrents.name. Discovery: Разрушители легенд. Выживание при землетрясении / MythBusters. Down and Dirty; Earthquake Survival (Сезон 12, эпизод 3) (2013) SATRip. Discovery: Разрушители легенд. Выживание при землетрясении / MythBusters.

Down and Dirty; Earthquake Survival (Сезон 12, эпизод 3) (2013) SATRip. Satch » 13 ноя 2014, 19:51. Режиссер / Телекомпания: Discovery Русское название: Разрушители легенд Оригинальное название: MythBusters Год выпуска: 2013 Жанр: Познавательное шоу. Описание: «Разрушители легенд» (англ. MythBusters) — американская научно-популярная телепередача на канале Discovery Channel. Передачу ведут специалисты по спецэффектам Джейми Хайнеман и Адам Севидж, использующие свои навыки и опыт для экспериментальной проверки различных баек, слухов, городских легенд и других порождений популярной культуры. Съёмки передачи обычно проходят в области залива Сан-Франциско. Каждый из часовых выпусков «Разрушители легенд» посвящён двум или трём городским легендам, распространённым убеждениям или слухам из интернета. Основной миф часто требует всесторонней подготовки и полигона, кроме него в передачу также включают один-два не столь хлопотных в плане подготовки и проведения мифа. На сегодняшний день, однако, три эксперимента (35, 40, и 46) были настолько сложными, что заняли весь час, отведённый на передачу. В выпуске: The MythBusters get down and dirty to test if using a bathroom's hand dryer is better than a paper towel and which public restroom stall is the cleanest. They also shake, rattle and roll to test if it's better to stand in the doorway during an earthquake. Ведущий: Adam Savage, Jamie Hyneman, Kari Byron, Grant Imahara, Tory Belleci. Режиссёр: Steve Christiansen, Lauren Williams. Перевод: Одноголосый закадровый. Видеокодек: XviD Битрейт видео: 1500 kb/s Размер кадра: 720 x 400 Качество видео: SATRip Аудиокодек: AC-3, 2ch. Битрейт аудио: 128 kb/s. Формат : AVI Формат/Информация : Audio Video Interleave Размер файла : 500 Мбайт Продолжительность : 42 м. Общий поток : 1635 Кбит/сек Программа кодирования : TMPGEnc Video Mastering Works 5 Version. 5.0.6.38 Библиотека кодирования : TMPGEnc Video Mastering Works 5 Version. 5.0.6.38. Видео Идентификатор : 0 Формат : MPEG-4 Visual Профиль формата : Advanced [email protected] Параметр BVOP формата : 2 Параметр QPel формата : Нет Параметр GMC формата : Без точки перехода Параметр матрицы формата : Default (H.263) Режим смешивания : Сжатый битовый поток Идентификатор кодека : XVID Идентификатор кодека/Подсказка : XviD Продолжительность : 42 м. Битрейт : 1500 Кбит/сек Ширина : 720 пикселей Высота : 400 пикселей Соотношение сторон : 16:9 Частота кадров : 25,000 кадров/сек Цветовое пространство : YUV Субдискретизация насыщенности : 4:2:0 Битовая глубина : 8 бит Тип развёртки : Прогрессивная Метод сжатия : С потерями Бит/(Пиксели*Кадры) : 0.208 Размер потока : 459 Мбайт (92%) Библиотека кодирования : XviD 64. Аудио Идентификатор : 1 Формат : AC-3 Формат/Информация : Audio Coding 3 Расширение режима : CM (complete main) Идентификатор кодека : 2000 Продолжительность : 42 м. Вид битрейта : Постоянный Битрейт : 128 Кбит/сек Каналы : 2 канала Расположение каналов : Front: L R Частота : 44,1 КГц Битовая глубина : 16 бит Метод сжатия : С потерями Размер потока : 39,1 Мбайт (8%) Выравнивание : Соединение по промежуткам Продолжительность промежутка : 241 мс. (6,01 видеокадров) Время предзагрузки промежутка : 208 мс.